#TITLE:I'm Sorry;
#SUBTITLE:Expi3nze;
#ARTIST:CNBLUE;
#TITLETRANSLIT:;
#SUBTITLETRANSLIT:;
#ARTISTTRANSLIT:;
#CREDIT:;
#BANNER:bn.png;
#BACKGROUND:bg.png;
#LYRICSPATH:;
#CDTITLE:cdtitle.png;
#MUSIC:ISR.mp3;
#OFFSET:-0.218;
#SAMPLESTART:46.478;
#SAMPLELENGTH:12.000;
#SELECTABLE:YES;
#BPMS:0.000=130.998,2.000=131.004,3.000=130.998,6.000=131.004,7.000=130.998,10.000=131.004,11.000=130.998,14.000=131.004,15.000=130.998,17.000=131.004,18.000=130.998,21.000=131.004,22.000=130.998,25.000=131.004,26.000=130.998,29.000=131.004,30.000=130.998,32.000=131.004,33.000=130.998,36.000=131.004,37.000=130.998,40.000=131.004,41.000=130.998,43.000=131.004,44.000=130.998,47.000=131.004,48.000=130.998,51.000=131.004,52.000=130.998,55.000=131.004,56.000=130.998,59.000=131.004,60.000=65.502,60.333=262.009,61.000=65.502,61.333=262.009,62.000=131.004,63.000=130.998,65.000=131.004,66.000=130.998,69.000=131.004,70.000=130.998,73.000=131.004,74.000=130.998,77.000=131.004,78.000=130.998,80.000=131.004,81.000=130.998,84.000=131.004,85.000=130.998,88.000=131.004,89.000=130.998,92.000=131.004,93.000=130.998,96.000=131.004,97.000=130.998,99.000=131.004,100.000=130.998,103.000=131.004,104.000=130.998,107.000=131.004,108.000=130.998,111.000=131.004,112.000=130.998,115.000=131.004,116.000=130.998,118.000=131.004,119.000=130.998,122.000=131.004,123.000=130.998,126.000=131.004,127.000=130.998,130.000=131.004,131.000=130.998,133.000=131.004,134.000=130.998,137.000=131.004,138.000=130.998,141.000=131.004,142.000=130.998,144.000=131.004,145.000=130.998,148.000=131.004,149.000=130.998,152.000=131.004,153.000=130.998,156.000=131.004,157.000=130.998,159.000=131.004,160.000=130.998,163.000=131.004,164.000=130.998,167.000=131.004,168.000=130.998,170.000=131.004,171.000=130.998,174.000=131.004,175.000=130.998,178.000=131.004,179.000=130.998,182.000=131.004,183.000=130.998,185.000=131.004,186.000=130.998,189.000=131.004,190.000=130.998,194.000=131.004,195.000=130.998,198.000=131.004,199.000=130.998,201.000=131.004,202.000=130.998,205.000=131.004,206.000=130.998,209.000=131.004,210.000=130.998,213.000=131.004,214.000=130.998,216.000=131.004,217.000=130.998,220.000=131.004,221.000=130.998,224.000=131.004,225.000=130.998,227.000=131.004,228.000=130.998,229.000=65.502,229.333=262.009,230.000=131.004,231.000=130.998,234.000=131.004,235.000=130.998,238.000=131.004,239.000=130.998,242.000=131.004,243.000=130.998,245.000=131.004,246.000=130.998,249.000=131.004,250.000=130.998,253.000=131.004,254.000=130.998,257.000=131.004,258.000=130.998,260.000=131.004,261.000=130.998,264.000=131.004,265.000=130.998,268.000=131.004,269.000=130.998,272.000=131.004,273.000=130.998,275.000=131.004,276.000=130.998,279.000=131.004,280.000=130.998,283.000=131.004,284.000=130.998,287.000=131.004,288.000=130.998,291.000=131.004,292.000=130.998,294.000=131.004,295.000=130.998,298.000=131.004,299.000=130.998,302.000=131.004,303.000=130.998,305.000=131.004,306.000=130.998,309.000=131.004,310.000=130.998,313.000=131.004,314.000=130.998,317.000=131.004,318.000=130.998,320.000=131.004,321.000=130.998,324.000=131.004,325.000=130.998,328.000=131.004,329.000=130.998,332.000=131.004,333.000=130.998,336.000=131.004,337.000=130.998;
#STOPS:;
#BGCHANGES:;
// cache tags:
#FIRSTBEAT:22.000;
#LASTBEAT:334.000;
#SONGFILENAME:Songs/Expi3nze 4th Collection/I'm Sorry (CNBLUE)/ISR.sm;
#HASMUSIC:1;
#HASBANNER:1;
#MUSICLENGTH:155.427;
// end cache tags

//---------------dance-single - ----------------
#NOTES:
     dance-single:
     :
     Hard:
     15:
     1.000,1.000,1.000,0.695,0.328,670.000,315.000,108.000,0.000,137.000:
0000
0000
0000
0000
,
0000
0000
0000
0000
,
0000
0000
0000
0000
,
0000
0000
0000
0000
,
0000
0000
0000
0000
,
0000
0000
0000
0000
0000
0000
0000
0000
0010
0000
0010
0001
1000
0000
1000
0000
,
0001
0000
1000
0000
1000
0000
0010
0010
0000
0001
0010
0000
0001
0000
0001
0000
,
2000
0000
0000
0000
3010
0001
0010
0000
0100
0000
1000
0000
0001
0000
0001
0000
,
1000
0000
0000
0000
0000
0000
0100
0000
0000
0000
0000
0000
0001
0000
0000
0000
0000
0000
1000
0000
0000
0010
0000
0000
1100
0000
0000
0000
0000
0000
0001
0000
0000
0000
1100
0000
0000
0000
0000
0000
1100
0000
0000
0000
0000
0000
1100
0000
,
0000
0000
0000
0000
1100
0000
0000
0000
0000
0000
0000
0000
0010
0000
0000
1000
0000
0000
1000
0000
0000
0000
0000
0000
0002
0000
0000
0000
0000
0000
0000
0000
0000
0000
0000
0000
0013
0000
0000
0000
0000
0000
0001
0000
0000
0000
0000
0000
,
0110
0001
0010
0000
0101
0000
0101
0000
1001
0000
1100
0000
1100
0000
0011
0000
,
1000
0000
0001
0000
1001
0000
1001
0000
0022
0000
0000
0000
1133
0010
0001
0000
,
1100
0010
0001
0000
1010
0000
1010
0000
1001
0000
1010
0000
1010
0001
1010
0000
,
1000
0100
1000
1000
0010
0100
1000
1000
0020
0000
0000
0000
1031
0000
0001
1100
,
0001
0010
1100
0001
1100
0000
1001
0000
1001
0000
0001
0001
1100
0000
0001
1100
,
0002
0000
0000
0000
0203
0000
0000
0000
2320
0000
0000
0000
3130
0100
0001
0000
,
0100
0100
0001
0000
0100
0100
0001
0000
0100
0010
0100
0000
0010
0100
0010
0000
,
0100
0010
0100
0000
0001
0000
0001
0000
0202
0000
0000
0000
1313
0001
0010
0000
,
1010
0001
0010
0000
0011
0000
0011
0000
1001
0000
1010
0000
1001
0000
0011
0000
,
1000
0000
0011
0000
0011
0000
1001
0000
0220
0000
0000
0000
1331
1000
0001
0000
,
0011
0100
1001
0000
0011
0000
1001
0000
1010
0000
1010
0000
0011
0000
0011
0000
,
1000
0010
0101
0010
1100
0010
0001
0010
2200
0000
0000
0000
3311
1000
0100
0010
,
1001
0000
1100
0000
1001
0000
0001
0010
0101
0000
1000
0011
0100
0000
1010
0000
,
0001
0000
1010
0000
1010
0000
0011
0000
2002
0000
0000
0000
3113
1000
1000
0010
,
0001
0001
0100
1000
0010
0001
0001
1000
1000
0010
0001
0001
0100
1000
0010
0001
,
0001
0000
1000
0100
1110
0001
1100
1100
,
1001
0011
1011
1000
1010
1010
0111
0110
,
0101
0101
1110
1001
1020
0002
1230
0023
,
0302
2030
0113
3110
0001
1100
1110
0001
,
1100
1001
0101
0101
1110
0001
1110
0001
,
0100
0000
0010
0010
0101
0000
0101
0000
0010
0000
1100
0000
1101
0000
1001
0000
,
0010
0100
1001
0011
2002
0100
3113
0110
,
0001
0000
1100
0000
1101
0000
0001
0000
0101
1000
0101
0000
1100
0000
1100
0001
,
1100
0001
0010
0100
1000
1000
1000
1000
1011
0000
0001
0000
1011
0000
0100
0000
,
1001
0011
0111
1000
0011
0011
1011
1001
,
1010
1001
1011
1000
0020
0200
2031
0320
,
3002
1130
1103
1001
1001
0101
1011
0100
,
0010
0000
0001
0000
1000
1000
0010
0000
2211
0000
0000
0000
3311
0000
0011
0000
,
1000
0000
0100
0010
1100
0000
1000
0000
1020
0000
0000
0000
1032
0000
1000
0000
,
0013
1000
1001
0010
2100
0001
3011
0011
,
1001
0000
1100
0000
2002
0000
0000
0000
3113
0000
0210
0001
0020
0000
2300
0001
,
0231
0000
3020
0001
2301
0001
0031
0100
3221
0000
0001
0000
1331
0000
1100
0000
,
1001
1001
1011
0100
1000
0010
0111
1010
,
1010
0011
0011
1000
0020
2000
0230
3020
,
0302
1030
1103
2200
0010
3312
0110
1003
,
0011
0011
1000
0011
0022
1000
1133
1100
,
0011
1001
1011
1010
0001
1010
1110
0011
,
0011
1000
0011
1000
0011
1000
0011
0000
,
1010
0000
0000
0000
0000
0000
1010
0000
0000
1010
0000
0000
0010
0001
0010
0001
0000
0000
1010
0000
0000
0010
0010
1000
,
0010
0000
0100
0010
0100
0001
1000
0000
0020
0000
0000
0000
2030
0000
0000
0000
,
3010
0000
0010
0000
1000
0000
0010
0001
0010
0000
0002
0000
1000
0000
1000
0000
,
0023
0000
1030
0001
2200
0000
3320
1000
,
1030
0000
0001
0000
1000
0000
1000
0100
1001
0000
1000
0000
1001
0000
1000
0000
,
1001
0000
0010
0001
0010
0001
0010
0000
2020
0000
0000
0000
3131
0000
0000
0000
,
0010
0000
0011
0000
1001
0000
0100
1000
0010
0000
1001
0000
1001
0000
1100
0000
,
1001
0000
0010
0001
0100
0000
1000
0000
0220
0000
0000
0000
0031
0010
2001
0010
,
0001
0010
0001
0010
0001
0010
3002
0000
1310
0000
0000
0000
0000
0000
0000
0000
,
0003
0000
0000
0000
1110
0001
1100
1100
,
1001
0011
1011
1000
1010
1010
0111
0110
,
0101
0101
1110
1001
1020
0002
1230
0023
,
0302
2030
0113
3110
0001
1100
1110
0001
,
1100
1001
0101
0101
1110
0001
1110
0001
,
0100
0000
0010
0010
0101
0000
0101
0000
0010
0000
1100
0000
1101
0000
1001
0000
,
0010
0100
1001
0011
2002
0100
3113
0110
,
0001
0000
1100
0000
1101
0000
0001
0000
0101
1000
0101
0000
1100
0000
1100
0001
,
1100
0001
0010
0100
1000
1000
1000
1000
1011
0000
0001
0000
1011
0000
0100
0000
,
1001
0011
0111
1000
0011
0011
1011
1001
,
1010
1001
1011
1000
0020
0200
2031
0320
,
3002
1130
1103
1001
1001
0101
1011
0100
,
0010
0000
0001
0000
1000
1000
0010
0000
2211
0000
0000
0000
3311
0000
0011
0000
,
1000
0000
0100
0010
1100
0000
1000
0000
1020
0000
0000
0000
1032
0000
1000
0000
,
0013
1000
1001
0010
2100
0001
3011
0011
,
1001
0000
1100
0000
2002
0000
0000
0000
3113
0000
0210
0001
0020
0000
2300
0001
,
0231
0000
3020
0001
2301
0001
0031
0100
3221
0000
0001
0000
1331
0000
1100
0000
,
1001
1001
1011
0100
1000
0010
0111
1010
,
1010
0011
0011
1000
0020
2000
0230
3020
,
0302
1030
1103
2200
0010
3312
0110
1003
,
0011
0011
1000
0011
0022
1000
1133
1100
,
0011
1001
1011
1010
0001
1010
1110
0011
,
0011
1000
0011
1000
0011
1000
0011
0000
,
1010
0000
0000
0000
0000
0000
1010
0000
0000
1010
0000
0000
0010
0001
0010
0001
0000
0000
1010
0000
0000
0010
0010
1000
,
0010
0000
0100
0010
0100
0001
1000
0000
2020
0000
0000
0000
0000
0000
0000
0000
,
0000
0000
0000
0000
,
0000
0000
3030
0000
,
0000
0000
0000
0000
,
0000
0000
0000
0000
;
